DNS SERVER AENDERNum der staatlichen Zensur zu umgehen. Sollten wir von eurem Provider geseprrt werden, nutzt den TOR BROWSER oder ändert euren DNS SERVER.

Filmwünsche können bei uns im Forum abgegeben werden

Wir Speichern Nicht




 
 
 
Top Releases
Selbstbestimmung.Politik.Abt...
Selbstbestimmung.Politik.Abt...
Letztendlich.sind.wir.dem.Un...
Wolfsnaechte.2018.German.DL....
Wolfsnaechte.2018.German.DL....
Der.Nebelmann.2017.GERMAN.DL...
Der.Nebelmann.2017.GERMAN.72...
Der.Nebelmann.2017.GERMAN.10...
Der.Nebelmann.2017.GERMAN.DU...
Oceans.8.2018.German.AC3.5.1...

Cinedubs
Skyscraper.German.DL.AC3.Dub...
Skyscraper.German.DL.AC3.Dub...
Hotel.Artemis.2018.GERMAN.DL...
Hotel.Artemis.2018.GERMAN.DL...
The.First.Purge.2018.German....
The.First.Purge.2018.German....
The.First.Purge.2018.German....
Hotel.Transsilvanien.3.Ein.M...
Hotel.Transsilvanien.3.Ein.M...
Hotel.Transsilvanien.3.Ein.M...

Neuerscheinungen 2017-18
Red.Army.Hooligans.2018.MULT...
Im.Zeichen.des.Zorro.The.Mar...
The.Mark.of.Zorro.1940.COLOR...
Rock.N.Roll.High.School.1979...
Ein.Vogel.auf.dem.Drahtseil....
Johnny.Guitar.1954.MULTi.COM...
X-Men.Der.letzte.Widerstand....
Mom.and.Dad.2017.GERMAN.DL.1...
Housesitter.1992.MULTi.COMPL...
X-Men.2.X2.2003.COMPLETE.UHD...

XXX
DaneJones.18.09.18.Baby.Nico...
EvilAngel.Anal.Darlings.2.XX...
DeepthroatFrenzy.18.09.19.Lu...
DarkX.18.09.20.Jane.Wilde.Ho...
CzechCasting.18.09.19.Nikola...
DevilsFilm.18.09.18.Sasha.He...
DigitalPlayground.18.09.17.C...
Do.Me.Dirty.Daddy.XXX.720p.W...
EroticaX.18.09.19.Alexis.Faw...
EvilAngel.Misha.In.Exile.XXX...
DeviceBondage.18.09.20.Rocky...
ExploitedCollegeGirls.18.09....
EvilAngel.POV.Sluts.Anal.Edi...
EuroTeenErotica.18.09.17.Nik...
Cum4K.18.09.18.Kenzie.Reeves...
Cucked.18.09.17.Natalia.Star...
CzechBitch.E59.Mature.Anal.W...
DorcelClub.18.09.17.Lilu.Moo...
EvilAngel.Misha.In.Exile.XXX...
DoeProjects.18.09.17.Jarushk...

3D
Sharknado.6.The.Last.One.3D....
Solo.A.Star.Wars.Story.3D.20...
Solo.A.Star.Wars.Story.3D.20...
Die.Biene.Maja.2.Die.Honigsp...
Avengers.Infinity.War.3D.201...
Avengers.Infinity.War.3D.201...
Rampage.Big.Meets.Bigger.3D....
Rampage.Big.Meets.Bigger.3D....
Rampage.Big.Meets.Bigger.3D....
Winter.Games.3D.2013.DUAL.CO...
Tomb.Raider.3D.2018.German.7...
Rampage.Big.Meets.Bigger.3D....
Rampage.Big.Meets.Bigger.3D....
Tomb.Raider.3D.2018.MULTi.CO...
Pacific.Rim.Uprising.3D.2018...

Old_Stuff
Buffy.The.Vampire.Slayer.199...
IMAX.Ride.Around.The.World.2...
Schimanski.-.Duisburg.Ruhror...
Akte.X.S02.German.DTS.DL.108...
How.I.Met.Your.Mother.S02.Ge...
Akte.X.S01.German.DTS.DL.108...
Den.Himmel.gibts.echt.DL.108...
Vikings.S02.German.DL.1080p....
Be.Kind.Rewind.Abgedreht.200...
Be.Kind.Rewind.Abgedreht.200...
Dracula.The.Dark.Lord.2012.G...
21.2008.German.DL.1080p.BluR...
Achtung.fertig.WK.Swissgerma...
The.Ouija.Exorcism.2015.MULT...
Meine.liebe.Rabenmutter.germ...

Filme
Bestie.Mensch.1938.German.AC...
Testament.of.Youth.2014.Germ...
American.Psycho.2000.UNRATED...
Hickok.2017.German.DL.DTSD.2...
The.Purge.S01.German.DD+51.D...
The.Purge.S01.German.DD+51.D...
Octalus.Deep.Rising.1998.OM....
The.Good.Cop.S01.COMPLETE.Ge...
The.Good.Cop.S01.COMPLETE.Ge...
Terror.in.der.Oper.1987.Germ...
The.Unborn.UNRATED.German.DL...
National.Lampoons.Loaded.Wea...
Ratter.Er.weiss.alles.ueber....
The.Punisher.2004.German.Dub...
Thrill.to.Kill.2013.German.D...
Die.Lidl-Story.GERMAN.DOKU.7...
Terra.X.Extreme.der.Tiefsee....
Elvis.und.das.Maedchen.aus.W...
Confusion.-.Sommer.der.Ausge...
The.Flash.2014.S04.GERMAN.10...
The.Last.Man.On.Earth.S04.Ge...
The.Last.Man.On.Earth.S04.Ge...
The.Punisher.2004.German.Dub...
Terminal.2004.German.DL.1080...

 
 
Spuren.Lass.alles.hinter.Dir.2013.German.DL.1080p.BluRay.x264-ENCOUNTERS

Jahr: 2013
Genre: Biografie, Drama
Sprache: Deutsch DTS | Englisch DTS
Laufzeit: 1h 53mn
Bitrate: 10.2 Mbps
Format: MKV
Größe: 8.04 GiB
Release:

Beschreibung:

Obwohl sie von vielen für verrückt gehalten wird, bricht die 27-jährige Robyn Davidson 1977 zu einer Expedition durch die australische Wüste auf. Auf der 2700 Kilometer langen Strecke, die sie zu Fuß zurücklegen will, wird sie nur von vier Kamelen und einem Hund begleitet – dabei gelegentlich von einem Fotografen besucht, dessen Bilder für ein Magazin ihren Trip finanzieren. Unerschütterlich bahnt sich Davidson ihren Weg durch lebensfeindliches Territorium, bis Euphorie und Elan von den Strapazen verdrängt werden.



Complete name                            : encounters-splaalhidi_1080p.mkv
Format                                   : Matroska
Format version                           : Version 4 / Version 2
File size                                : 8.04 GiB
Duration                                 : 1h 53mn
Overall bit rate                         : 10.2 Mbps
Encoded date                             : UTC 2014-10-09 22:24:17
Writing application                      : mkvmerge v7.1.0 ('Good Love') 64bit built on Jul 27 2014 13:06:55
Writing library                          : libebml v1.3.0 + libmatroska v1.4.1
DURATION                                 : 01:53:05.718000000
NUMBER_OF_FRAMES                         : 636161
NUMBER_OF_BYTES                          : 1279955932
_STATISTICS_WRITING_APP                  : mkvmerge v7.1.0 ('Good Love') 64bit built on Jul 27 2014 13:06:55
_STATISTICS_WRITING_DATE_UTC             : 2014-10-09 22:24:17
_STATISTICS_TAGS                         : BPS DURATION NUMBER_OF_FRAMES NUMBER_OF_BYTES

Video
ID                                       : 1
Format                                   : AVC
Format/Info                              : Advanced Video Codec
Format profile                           : High@L4.1
Format settings, CABAC                   : Yes
Format settings, ReFrames                : 5 frames
Codec ID                                 : V_MPEG4/ISO/AVC
Duration                                 : 1h 53mn
Bit rate                                 : 6 953 Kbps
Width                                    : 1 920 pixels
Height                                   : 808 pixels
Display aspect ratio                     : 2.40:1
Frame rate mode                          : Constant
Frame rate                               : 24.000 fps
Color space                              : YUV
Chroma subsampling                       : 4:2:0
Bit depth                                : 8 bits
Scan type                                : Progressive
Bits/(Pixel*Frame)                       : 0.187
Stream size                              : 5.49 GiB (68%)
Title                                    : encounters-splaalhidi_1080p
Writing library                          : x264 core 142 r2453 ea0ca51
Encoding settings                        : cabac=1 / ref=5 / deblock=1:-1:-1 / analyse=0x3:0x133 / me=umh / subme=7 / psy=1 / psy_rd=1.00:0.15 / mixed_ref=1 / me_range=16 / chroma_me=1 / trellis=1 / 8x8dct=1 / cqm=0 / deadzone=21,11 / fast_pskip=0 / chroma_qp_offset=-3 / threads=18 / lookahead_threads=3 / sliced_threads=0 / nr=0 / decimate=1 / interlaced=0 / bluray_compat=0 / constrained_intra=0 / bframes=3 / b_pyramid=2 / b_adapt=1 / b_bias=0 / direct=1 / weightb=1 / open_gop=0 / weightp=2 / keyint=250 / keyint_min=24 / scenecut=40 / intra_refresh=0 / rc_lookahead=40 / rc=crf / mbtree=1 / crf=20.0 / qcomp=0.60 / qpmin=0 / qpmax=69 / qpstep=4 / ip_ratio=1.40 / aq=1:1.00
Default                                  : Yes
Forced                                   : No

Audio #1
ID                                       : 2
Format                                   : DTS
Format/Info                              : Digital Theater Systems
Mode                                     : 16
Format settings, Endianness              : Big
Codec ID                                 : A_DTS
Duration                                 : 1h 53mn
Bit rate mode                            : Constant
Bit rate                                 : 1 509 Kbps
Channel(s)                               : 6 channels
Channel positions                        : Front: L C R, Side: L R, LFE
Sampling rate                            : 48.0 KHz
Bit depth                                : 24 bits
Compression mode                         : Lossy
Stream size                              : 1.19 GiB (15%)
Title                                    : DTS-1 510 Kbps
Language                                 : German
Default                                  : Yes
Forced                                   : No

Audio #2
ID                                       : 3
Format                                   : DTS
Format/Info                              : Digital Theater Systems
Mode                                     : 16
Format settings, Endianness              : Big
Codec ID                                 : A_DTS
Duration                                 : 1h 53mn
Bit rate mode                            : Constant
Bit rate                                 : 1 509 Kbps
Channel(s)                               : 6 channels
Channel positions                        : Front: L C R, Side: L R, LFE
Sampling rate                            : 48.0 KHz
Bit depth                                : 24 bits
Compression mode                         : Lossy
Stream size                              : 1.19 GiB (15%)
Title                                    : DTS-1 510 Kbps
Language                                 : English
Default                                  : No
Forced                                   : No


Download:
Share Online Share OnlineShare OnlineShare Online
 

Kommentare