DNS SERVER AENDERNum der staatlichen Zensur zu umgehen. Sollten wir von eurem Provider geseprrt werden, nutzt den TOR BROWSER oder ändert euren DNS SERVER.

Filmwünsche können bei uns im Forum abgegeben werden

Wir Speichern Nicht




 
 
 
Top Releases
Wolfsnaechte.2018.German.DL....
Wolfsnaechte.2018.German.DL....
Der.Nebelmann.2017.GERMAN.DL...
Der.Nebelmann.2017.GERMAN.72...
Der.Nebelmann.2017.GERMAN.10...
Der.Nebelmann.2017.GERMAN.DU...
Oceans.8.2018.German.AC3.5.1...
Oceans.8.2018.German.AC3.5.1...
Oceans.8.2018.German.AC3.5.1...
Anon.2018.German.AC3.DL.720p...

Cinedubs
Skyscraper.German.DL.AC3.Dub...
Skyscraper.German.DL.AC3.Dub...
Hotel.Artemis.2018.GERMAN.DL...
Hotel.Artemis.2018.GERMAN.DL...
The.First.Purge.2018.German....
The.First.Purge.2018.German....
The.First.Purge.2018.German....
Hotel.Transsilvanien.3.Ein.M...
Hotel.Transsilvanien.3.Ein.M...
Hotel.Transsilvanien.3.Ein.M...

Neuerscheinungen 2017-18
Im.Zeichen.des.Zorro.The.Mar...
The.Mark.of.Zorro.1940.COLOR...
Rock.N.Roll.High.School.1979...
Ein.Vogel.auf.dem.Drahtseil....
Johnny.Guitar.1954.MULTi.COM...
X-Men.Der.letzte.Widerstand....
Mom.and.Dad.2017.GERMAN.DL.1...
Housesitter.1992.MULTi.COMPL...
X-Men.2.X2.2003.COMPLETE.UHD...
Neun.Monate.Nine.Months.1995...

XXX
DaneJones.18.09.18.Baby.Nico...
EvilAngel.Anal.Darlings.2.XX...
DeepthroatFrenzy.18.09.19.Lu...
DarkX.18.09.20.Jane.Wilde.Ho...
CzechCasting.18.09.19.Nikola...
DevilsFilm.18.09.18.Sasha.He...
DigitalPlayground.18.09.17.C...
Do.Me.Dirty.Daddy.XXX.720p.W...
EroticaX.18.09.19.Alexis.Faw...
EvilAngel.Misha.In.Exile.XXX...
DeviceBondage.18.09.20.Rocky...
ExploitedCollegeGirls.18.09....
EvilAngel.POV.Sluts.Anal.Edi...
EuroTeenErotica.18.09.17.Nik...
Cum4K.18.09.18.Kenzie.Reeves...
Cucked.18.09.17.Natalia.Star...
CzechBitch.E59.Mature.Anal.W...
DorcelClub.18.09.17.Lilu.Moo...
EvilAngel.Misha.In.Exile.XXX...
DoeProjects.18.09.17.Jarushk...

3D
Sharknado.6.The.Last.One.3D....
Solo.A.Star.Wars.Story.3D.20...
Solo.A.Star.Wars.Story.3D.20...
Die.Biene.Maja.2.Die.Honigsp...
Avengers.Infinity.War.3D.201...
Avengers.Infinity.War.3D.201...
Rampage.Big.Meets.Bigger.3D....
Rampage.Big.Meets.Bigger.3D....
Rampage.Big.Meets.Bigger.3D....
Winter.Games.3D.2013.DUAL.CO...
Tomb.Raider.3D.2018.German.7...
Rampage.Big.Meets.Bigger.3D....
Rampage.Big.Meets.Bigger.3D....
Tomb.Raider.3D.2018.MULTi.CO...
Pacific.Rim.Uprising.3D.2018...

Old_Stuff
Buffy.The.Vampire.Slayer.199...
IMAX.Ride.Around.The.World.2...
Schimanski.-.Duisburg.Ruhror...
Akte.X.S02.German.DTS.DL.108...
How.I.Met.Your.Mother.S02.Ge...
Akte.X.S01.German.DTS.DL.108...
Den.Himmel.gibts.echt.DL.108...
Vikings.S02.German.DL.1080p....
Be.Kind.Rewind.Abgedreht.200...
Be.Kind.Rewind.Abgedreht.200...
Dracula.The.Dark.Lord.2012.G...
21.2008.German.DL.1080p.BluR...
Achtung.fertig.WK.Swissgerma...
The.Ouija.Exorcism.2015.MULT...
Meine.liebe.Rabenmutter.germ...

Filme
Terror.in.der.Oper.1987.Germ...
The.Unborn.UNRATED.German.DL...
National.Lampoons.Loaded.Wea...
Ratter.Er.weiss.alles.ueber....
The.Punisher.2004.German.Dub...
Thrill.to.Kill.2013.German.D...
Tenebrae.UNCUT.GERMAN.1982.D...
Die.Lidl-Story.GERMAN.DOKU.7...
Terra.X.Extreme.der.Tiefsee....
Elvis.und.das.Maedchen.aus.W...
Confusion.-.Sommer.der.Ausge...
The.Flash.2014.S04.GERMAN.10...
The.Last.Man.On.Earth.S04.Ge...
The.Last.Man.On.Earth.S04.Ge...
The.Punisher.2004.German.Dub...
Terminal.2004.German.DL.1080...
Tetsuo.The.Bullet.Man.2009.G...
Teufel.in.Blau.1995.German.D...
Der.Mann.der.herrschen.wollt...
Neun.Monate.1995.German.DL.1...
Der.duenne.Mann.1934.German....
Drachenzaehmen.leicht.gemach...
Tekkonkinkreet.2006.German.D...
The.Boneyard.1991.German.720...

 
 
Terror.in.der.Oper.1987.German.1080p.BluRay.x264-iFPD

Jahr: 1987
Genre: Horror, Thriller
Sprache: Deutsch DTS
Laufzeit: 1h 47mn
Bitrate: 8 750 Kbps
Format: MKV
Größe: 6.56 GiB
Release:

Beschreibung:

Durch den Unfall einer Opern-Diva bekommt die junge Nachwuchssängerin Betty die Chance, in Verdis “Macbeth” die Hauptrolle zu übernehmen. Nach ihrem großen Erfolg wird sie jedoch von einem Unbekannten verfolgt, der sie fesselt und zuzusehen zwingt, wie er Freunde und Bekannte vor ihren Augen ermordet. Während einer Aufführung läßt der Regisseur des Stücks einen Schwarm Raben frei, die den Killer wiedererkennen und angreifen. Bei einem Feuer kommt er allem Anschein nach ums Leben, verfolgt in Wirklichkeit aber Betty bis zu einer einsamen Berghütte, wo sie sich von den Schrecken erholen wollte.



Complete name                            : ifpd-terrorinderoper.1987-1080p.mkv
Format                                   : Matroska
Format version                           : Version 4 / Version 2
File size                                : 6.56 GiB
Duration                                 : 1h 47mn
Overall bit rate                         : 8 750 Kbps
Encoded date                             : UTC 2015-12-15 05:31:08
Writing application                      : mkvmerge v7.9.0 ('Birds') 64bit
Writing library                          : libebml v1.3.1 + libmatroska v1.4.2

Video
ID                                       : 1
Format                                   : AVC
Format/Info                              : Advanced Video Codec
Format profile                           : High@L4.1
Format settings, CABAC                   : Yes
Format settings, ReFrames                : 5 frames
Codec ID                                 : V_MPEG4/ISO/AVC
Duration                                 : 1h 47mn
Bit rate                                 : 7 242 Kbps
Width                                    : 1 920 pixels
Height                                   : 816 pixels
Display aspect ratio                     : 2.35:1
Frame rate mode                          : Constant
Frame rate                               : 23.976 fps
Color space                              : YUV
Chroma subsampling                       : 4:2:0
Bit depth                                : 8 bits
Scan type                                : Progressive
Bits/(Pixel*Frame)                       : 0.193
Stream size                              : 5.30 GiB (81%)
Title                                    : Terror in der Oper (1987)
Writing library                          : x264 core 148 r2638 7599210
Encoding settings                        : cabac=1 / ref=5 / deblock=1:-3:-3 / analyse=0x3:0x113 / me=umh / subme=7 / psy=1 / psy_rd=1.00:0.15 / mixed_ref=1 / me_range=16 / chroma_me=1 / trellis=1 / 8x8dct=1 / cqm=0 / deadzone=21,11 / fast_pskip=0 / chroma_qp_offset=-3 / threads=10 / lookahead_threads=1 / sliced_threads=0 / nr=0 / decimate=1 / interlaced=0 / bluray_compat=0 / constrained_intra=0 / bframes=3 / b_pyramid=2 / b_adapt=1 / b_bias=0 / direct=3 / weightb=1 / open_gop=0 / weightp=2 / keyint=250 / keyint_min=23 / scenecut=40 / intra_refresh=0 / rc_lookahead=40 / rc=2pass / mbtree=1 / bitrate=7242 / ratetol=1.0 / qcomp=0.60 / qpmin=0 / qpmax=69 / qpstep=4 / cplxblur=20.0 / qblur=0.5 / ip_ratio=1.40 / aq=1:1.00
Default                                  : Yes
Forced                                   : No

Audio
ID                                       : 2
Format                                   : DTS
Format/Info                              : Digital Theater Systems
Mode                                     : 16
Format settings, Endianness              : Big
Codec ID                                 : A_DTS
Duration                                 : 1h 47mn
Bit rate mode                            : Constant
Bit rate                                 : 1 509 Kbps
Channel(s)                               : 2 channels
Channel positions                        : Front: L R
Sampling rate                            : 48.0 KHz
Bit depth                                : 24 bits
Compression mode                         : Lossy
Stream size                              : 1.13 GiB (17%)
Title                                    : DTS
Language                                 : German
Default                                  : Yes
Forced                                   : No

Text
ID                                       : 3
Format                                   : UTF-8
Codec ID                                 : S_TEXT/UTF8
Codec ID/Info                            : UTF-8 Plain Text
Title                                    : forced
Language                                 : German
Default                                  : Yes
Forced                                   : No



Download:
Share Online Share OnlineShare OnlineShare Online
 

Kommentare