Filecrypt zeigt vereinzelt Files als "n/a". Die Downloads sind trotzdem komplett.

DNS SERVER AENDERNum der staatlichen Zensur zu umgehen. Sollten wir von eurem Provider geseprrt werden, nutzt den TOR BROWSER oder ändert euren DNS SERVER.

Filmwünsche können bei uns im Forum abgegeben werden

Wir Speichern Nicht




 
 
 
Top Releases
Maleika.2017.GERMAN.DOKU.108...
Ant-Man.And.The.Wasp.2018.Ge...
Apostle.2018.German.AC3.DL.1...
Brawl.in.Cell.Block.99.UNCUT...
Burning.2.On.Ice.2016.German...
22.Juli.2018.German.AC3.DL.1...
No.Way.Out.Gegen.die.Flammen...
Ant-Man.and.the.Wasp.2018.Ge...
Ant-Man.and.the.Wasp.2018.Ge...
Ant-Man.and.the.Wasp.2018.Ge...

Cinedubs
MEG.Biss.bald.2018.German.AC...
MEG.Biss.bald.2018.German.AC...
Bad.Spies.2018.German.AC3MD....
Bad.Spies.2018.German.AC3MD....
Searching.2018.German.AC3MD....
Searching.2018.German.AC3MD....
211.Cops.Under.Fire.2018.Ger...
211.Cops.Under.Fire.2018.Ger...
MEG.Biss.bald.2018.German.AC...
MEG.Biss.bald.2018.German.AC...

Neuerscheinungen 2017-18
Term.Life.Moerderischer.Wett...
Ratter.Er.weiss.alles.ueber....
Maleika.2017.DOCU.GERMAN.COM...
Mr.Right.2015.German.AC3.DL....
Jessica.und.das.Rentier.Pran...
Drone.Toedliche.Mission.2017...
The.Darkest.Minds.Die.Ueberl...
Juice.City.War.1992.German.D...
Der.Augenzeuge.Eyewitness.19...
Totentanz.der.Vampire.The.Ho...

XXX
EroticaX.18.10.03.Paige.Owen...
ClubSeventeen.18.10.01.Stacy...
CastingCouch-X.18.10.05.Chlo...
Private.18.10.02.Private.Cas...
GirlsOutWest.18.10.01.Penelo...
NewSensations.18.10.05.Candi...
Lubed.18.10.01.Aidra.Fox.Dri...
JulesJordan.18.10.04.Anny.Au...
BoldlyGirls.18.10.05.Sheila....
Confessions.18.10.01.Scarlet...
WildOnCam.18.10.04.Elle.Vone...
GrandpasFuckTeens.18.10.02.L...
KrissKiss.18.08.29.Perfect.B...
Watch4Beauty.18.10.03.Jia.Li...
PornMegaLoad.18.10.04.Natali...
Hustler.18.10.04.Kendra.Lynn...
DaughterSwap.18.10.02.Alexa....
Hustler.18.10.02.Noemie.Bila...
CreampieInAsia.18.10.05.Nok....
KellyMadison.18.10.05.Olivia...

3D
Jurassic.World.Das.gefallene...
Jurassic.World.Das.gefallene...
Best.of.3D.vol.10.-.12.GERMA...
Die.Biene.Maja.2.Die.Honigsp...
Sharknado.6.The.Last.One.3D....
Solo.A.Star.Wars.Story.3D.20...
Solo.A.Star.Wars.Story.3D.20...
Die.Biene.Maja.2.Die.Honigsp...
Avengers.Infinity.War.3D.201...
Avengers.Infinity.War.3D.201...
Rampage.Big.Meets.Bigger.3D....
Rampage.Big.Meets.Bigger.3D....
Rampage.Big.Meets.Bigger.3D....
Winter.Games.3D.2013.DUAL.CO...
Tomb.Raider.3D.2018.German.7...

Old_Stuff
Britney.Spears.Live.The.Femm...
Buffy.The.Vampire.Slayer.199...
IMAX.Ride.Around.The.World.2...
Schimanski.-.Duisburg.Ruhror...
Akte.X.S02.German.DTS.DL.108...
How.I.Met.Your.Mother.S02.Ge...
Akte.X.S01.German.DTS.DL.108...
Den.Himmel.gibts.echt.DL.108...
Vikings.S02.German.DL.1080p....
Be.Kind.Rewind.Abgedreht.200...
Be.Kind.Rewind.Abgedreht.200...
Dracula.The.Dark.Lord.2012.G...
21.2008.German.DL.1080p.BluR...
Achtung.fertig.WK.Swissgerma...
The.Ouija.Exorcism.2015.MULT...

Filme
Auf.Wiedersehen.Kinder.1987....
Auf.Treu.und.Glauben.2016.Ge...
Auf.eigene.Faust.1959.German...
Auf.Liebe.und.Tod.1983.Germa...
Auf.Kriegsfuss.mit.Major.Pay...
Salman.Khan.-.Love.1991.GERM...
Auf.den.ersten.Blick.1999.Ge...
Decommissioned.Anschlag.auf....
Joshua.Der.Erstgeborene.2007...
Joshua.Der.Erstgeborene.2007...
Totentanz.der.Vampire.1971.G...
Totentanz.der.Vampire.1971.G...
The.Crone.2013.German.1080p....
Tanz.der.Teufel.1981.German....
Tanz.der.Teufel.Evil.Dead.19...
Crazy.Ex.Girlfriend.S03.Germ...
Crazy.Ex.Girlfriend.S03.Germ...
Supernatural.S13.DL.DD51.Dub...
Supernatural.S13.DL.DD51.Dub...
Maleika.2017.GERMAN.DL.DOKU....
Maria.voll.der.Gnade.2004.Ge...
Auf.der.Suche.nach.einem.Fre...
Auf.Augenhoehe.2016.German.1...
Auf.den.Schwingen.des.Todes....

 
 
Auf.Liebe.und.Tod.1983.German.1080p.BluRay.x264-SPiCY

Jahr: 1983
Genre: Komödie, Krimi
Sprache: Deutsch DTS
Laufzeit: 1h 51mn
Bitrate: 8 458 Kbps
Format: MKV
Größe: 6.56 GiB
Release:

Beschreibung:

Immobilienmakler Julien soll in einer südfranzösischen Kleinstadt den Geliebten seiner untreuen Frau und später auch seine Frau ermordet haben. Während die Polizei von seiner Schuld überzeugt ist, nimmt Juliens resolute Sekretärin Barbara, die ihn im Keller seines Büros versteckt, eigene Ermittlungen auf, in deren Verlauf eine Kinokassiererin und ein Bordellbesitzer ermordet werden. Barbara fädelt mit einem Detektiv und dem Kommissar eine Intrige ein und kann den wirklichen Mörder stellen. Barbara und Julien werden getraut.



Complete name                            : spy-liebetod-1080p.mkv
Format                                   : Matroska
Format version                           : Version 4 / Version 2
File size                                : 6.56 GiB
Duration                                 : 1h 51mn
Overall bit rate                         : 8 458 Kbps
Encoded date                             : UTC 2016-10-01 22:21:07
Writing application                      : mkvmerge v9.2.0 ('Photograph') 64bit
Writing library                          : libebml v1.3.3 + libmatroska v1.4.4
DURATION                                 : 01:02:53.544000000
NUMBER_OF_FRAMES                         : 8
NUMBER_OF_BYTES                          : 190
_STATISTICS_WRITING_APP                  : mkvmerge v9.2.0 ('Photograph') 64bit
_STATISTICS_WRITING_DATE_UTC             : 2016-10-01 22:21:07
_STATISTICS_TAGS                         : BPS DURATION NUMBER_OF_FRAMES NUMBER_OF_BYTES

Video
ID                                       : 1
Format                                   : AVC
Format/Info                              : Advanced Video Codec
Format profile                           : High@L4.1
Format settings, CABAC                   : Yes
Format settings, ReFrames                : 4 frames
Codec ID                                 : V_MPEG4/ISO/AVC
Duration                                 : 1h 51mn
Bit rate                                 : 7 686 Kbps
Width                                    : 1 808 pixels
Height                                   : 1 080 pixels
Display aspect ratio                     : 1.674
Frame rate mode                          : Constant
Frame rate                               : 24.000 fps
Color space                              : YUV
Chroma subsampling                       : 4:2:0
Bit depth                                : 8 bits
Scan type                                : Progressive
Bits/(Pixel*Frame)                       : 0.164
Stream size                              : 5.83 GiB (89%)
Writing library                          : x264 core 148 r2705 3f5ed56
Encoding settings                        : cabac=1 / ref=4 / deblock=1:-1:-1 / analyse=0x3:0x113 / me=umh / subme=7 / psy=1 / psy_rd=1.00:0.00 / mixed_ref=1 / me_range=16 / chroma_me=1 / trellis=1 / 8x8dct=1 / cqm=0 / deadzone=21,11 / fast_pskip=0 / chroma_qp_offset=-2 / threads=12 / lookahead_threads=2 / sliced_threads=0 / nr=0 / decimate=1 / interlaced=0 / bluray_compat=0 / constrained_intra=0 / bframes=3 / b_pyramid=2 / b_adapt=1 / b_bias=0 / direct=3 / weightb=1 / open_gop=0 / weightp=2 / keyint=250 / keyint_min=24 / scenecut=40 / intra_refresh=0 / rc_lookahead=40 / rc=2pass / mbtree=1 / bitrate=7686 / ratetol=1.0 / qcomp=0.60 / qpmin=0 / qpmax=69 / qpstep=4 / cplxblur=20.0 / qblur=0.5 / ip_ratio=1.40 / aq=1:1.00
Default                                  : Yes
Forced                                   : No

Audio
ID                                       : 2
Format                                   : DTS
Format/Info                              : Digital Theater Systems
Mode                                     : 16
Format settings, Endianness              : Big
Codec ID                                 : A_DTS
Duration                                 : 1h 51mn
Bit rate mode                            : Constant
Bit rate                                 : 768 Kbps
Channel(s)                               : 1 channel
Channel positions                        : Front: C
Sampling rate                            : 48.0 KHz
Bit depth                                : 24 bits
Compression mode                         : Lossy
Stream size                              : 610 MiB (9%)
Language                                 : German
Default                                  : Yes
Forced                                   : No

Text
ID                                       : 3
Format                                   : UTF-8
Codec ID                                 : S_TEXT/UTF8
Codec ID/Info                            : UTF-8 Plain Text
Language                                 : German
Default                                  : Yes
Forced                                   : No


Download:
Share Online Share OnlineShare OnlineShare Online
 

Kommentare