Filecrypt zeigt vereinzelt Files als "n/a". Die Downloads sind trotzdem komplett.

DNS SERVER AENDERNum der staatlichen Zensur zu umgehen. Sollten wir von eurem Provider geseprrt werden, nutzt den TOR BROWSER oder ändert euren DNS SERVER.

Filmwünsche können bei uns im Forum abgegeben werden

Wir Speichern Nicht




 
 
 
Top Releases
Feinde.Hostiles.2017.DUAL.CO...
The.Miracle.Season.Ihr.groes...
The.Miracle.Season.Ihr.groes...
The.Miracle.Season.Ihr.groes...
Le.Jeu.Nichts.zu.verbergen.2...
Le.Jeu.Nichts.zu.verbergen.2...
Cam.2018.German.DL.1080p.WEB...
Cam.2018.German.DL.720p.WEB....
Teen.Titans.Go.To.the.Movies...
The.Ballad.of.Buster.Scruggs...

Cinedubs
The.Happytime.Murders.Kein.S...
The.Happytime.Murders.Kein.S...
Peppermint.Angel.of.Vengeanc...
Peppermint.Angel.of.Vengeanc...
The.Nun.German.AC3D.DL.1080p...
Christopher.Robin.German.DL....
Christopher.Robin.German.DL....
A.Star.Is.Born.German.DL.AC3...
A.Star.Is.Born.German.DL.AC3...
Mission.Impossible.Fallout.G...

Neuerscheinungen 2017-18
Cliffhanger.Nur.die.Starken....
Cliffhanger.Nur.die.Starken....
Devils.Gate.Pforte.zur.Hoell...
Devils.Gate.Pforte.zur.Hoell...
Beautiful.People.2014.German...
Immortal.Wars.Nur.der.Staerk...
Beautiful.People.2014.DUAL.C...
Devils.Gate.Pforte.zur.Hoell...
Night.Of.The.Demons.1988.DUA...
Africa.Addio.1966.DUAL.COMPL...

XXX
Naughty.Threesomes.12.XXX.72...
Naughty.Threesomes.12.XXX.10...
NHLPCentral.18.05.03.French....
NuruMassage.18.10.31.Isabell...
MyFriendsHotMom.18.10.31.Bri...
MetArt.18.10.28.Lola.Chic.Se...
MyVeryFirstTime.18.10.28.Asp...
MyFirstSexTeacher.18.10.28.K...
Nubiles.18.10.31.Katy.Vi.Lus...
NHLPCentral.18.05.10.Tracy.R...
NHLPCentral.18.05.14.Satine....
LustyGrandmas.18.04.25.Malya...
LustyGrandmas.18.04.19.Dolly...
Nubiles.18.10.30.Aria.Logan....
LustyGrandmas.18.04.13.Malya...
MyFriendsHotMom.18.10.29.Bri...
NHLPCentral.18.05.07.Sophia....
Nubiles.18.10.30.Elizabeth.E...
MetArt.18.10.30.Sybil.A.Roma...
MySistersHotFriend.18.10.30....

3D
Die.Unglaublichen.2.2018.3D....
Skyscraper.3D.2018.MULTi.COM...
Ant-Man.And.The.Wasp.3D.2018...
Ant.Man.and.the.Wasp.3D.2018...
Die.Unglaublichen.2.3D.2018....
Die.Unglaublichen.2.2018.3D....
Die.Unglaublichen.2.2018.3D....
Sharknado.6.The.Last.One.3D....
Deep.Kleine.Helden.der.Tiefs...
Deep.3D.2017.MULTI.COMPLETE....
Detective.Dee.und.die.Legend...
Detective.Dee.und.die.Legend...
Skyscraper.3D.German.DL.AC3....
Ant-Man.and.the.Wasp.2018.3D...
Jurassic.World.Das.gefallene...

Old_Stuff
Detective.Dee.und.das.Geheim...
Detective.Dee.Und.Der.Fluch....
Ghost.Rider.Spirit.of.Vengea...
Species.IV.Das.Erwachen.2007...
Species.IV.Das.Erwachen.2007...
Hotel.Transsilvanien.2012.Ge...
The.Dead.2010.German.DL.1080...
The.Dead.2.India.2013.German...
Britney.Spears.Live.The.Femm...
Buffy.The.Vampire.Slayer.199...
IMAX.Ride.Around.The.World.2...
Schimanski.-.Duisburg.Ruhror...
Akte.X.S02.German.DTS.DL.108...
How.I.Met.Your.Mother.S02.Ge...
Akte.X.S01.German.DTS.DL.108...

Filme
Selfless.2015.German.DL.1080...
Full.Speed.2016.German.1080p...
Plan.B.Scheiss.auf.Plan.A.20...
Unter.deutschen.Betten.2017....
Nevada.Smith.1966.German.108...
Herr.Bello.2007.German.1080p...
Narcos.Mexico.S01.COMPLETE.G...
Chennai.Express.2013.German....
Querelle.Ein.Pakt.mit.dem.Te...
Die.Fuersten.der.Dunkelheit....
Blindspot.S03.German.DL.DUBB...
Blindspot.S03.German.DL.DUBB...
Der.Baum.der.Helden.2010.Ger...
Narcos.Mexico.S01.COMPLETE.G...
The.Walking.Dead.S09.GERMAN....
The.Walking.Dead.S09.GERMAN....
Gar.kein.Sex.mehr.1988.Germa...
Cherry.2000.1987.German.DL.1...
Treck.nach.Missouri.1988.Ger...
Tremors.4.Wie.alles.begann.2...
Tremors.3.Die.neue.Brut.2001...
Tremors.2.Die.Rueckkehr.der....
Tremors.Im.Land.der.Raketenw...
Beautiful.People.2014.German...

 
 
Peppermint.Angel.of.Vengeance.2018.German.AC3MD.DL.1080p.WEB-DL.h264-PS

Jahr: 2018
Genre: Action, Thriller
Sprache: Deutsch AC3 | Englisch AC3
Laufzeit: 1h 41mn
Bitrate: 5 147 Kbps
Format: MKV
Größe: 3.65 GiB
Release:

Beschreibung:

Bei einem Überfall wird Riley North (Jennifer Garner) schwer verletzt und fällt anschließend ins Koma, ihr Mann und ihre Tochter werden getötet. Als sie aus dem Koma erwacht und feststellen muss, dass sie von Polizei und Justiz im Stich gelassen wurde und die Mörder von den Behörden gedeckt werden, wird sie vom Wunsch nach Rache und Vergeltungs überwältigt: Sie lässt sich im Untergrund zur Killerin ausbilden, um zehn Jahre nach der Tat Rache an all jenen zu nehmen, die ihr Leben zerstört haben. Nach und nach räumt sie in der Unterwelt von Los Angeles auf…



Complete name                            : ps-pepper.webmd.108.mkv
Format                                   : Matroska
Format version                           : Version 4 / Version 2
File size                                : 3.65 GiB
Duration                                 : 1h 41mn
Overall bit rate                         : 5 147 Kbps
Encoded date                             : UTC 2018-11-20 14:10:17
Writing application                      : mkvmerge v8.0.0 ('Til The Day That I Die') 64bit
Writing library                          : libebml v1.3.1 + libmatroska v1.4.2
DURATION                                 : 01:41:37.664000000
NUMBER_OF_FRAMES                         : 190552
NUMBER_OF_BYTES                          : 146343936
_STATISTICS_WRITING_APP                  : mkvmerge v8.0.0 ('Til The Day That I Die') 64bit
_STATISTICS_WRITING_DATE_UTC             : 2018-11-20 14:10:17
_STATISTICS_TAGS                         : BPS DURATION NUMBER_OF_FRAMES NUMBER_OF_BYTES

Video
ID                                       : 1
Format                                   : AVC
Format/Info                              : Advanced Video Codec
Format profile                           : High@L4.0
Format settings, CABAC                   : Yes
Format settings, ReFrames                : 5 frames
Codec ID                                 : V_MPEG4/ISO/AVC
Duration                                 : 1h 41mn
Bit rate                                 : 4 468 Kbps
Width                                    : 1 912 pixels
Height                                   : 800 pixels
Display aspect ratio                     : 2.40:1
Frame rate mode                          : Constant
Frame rate                               : 23.976 fps
Color space                              : YUV
Chroma subsampling                       : 4:2:0
Bit depth                                : 8 bits
Scan type                                : Progressive
Bits/(Pixel*Frame)                       : 0.122
Stream size                              : 3.17 GiB (87%)
Language                                 : English
Default                                  : Yes
Forced                                   : No
Color primaries                          : BT.709
Transfer characteristics                 : BT.709
Matrix coefficients                      : BT.709

Audio #1
ID                                       : 2
Format                                   : AC-3
Format/Info                              : Audio Coding 3
Mode extension                           : CM (complete main)
Format settings, Endianness              : Big
Codec ID                                 : A_AC3
Duration                                 : 1h 41mn
Bit rate mode                            : Constant
Bit rate                                 : 192 Kbps
Channel(s)                               : 2 channels
Channel positions                        : Front: L R
Sampling rate                            : 48.0 KHz
Bit depth                                : 16 bits
Compression mode                         : Lossy
Delay relative to video                  : -42ms
Stream size                              : 140 MiB (4%)
Language                                 : German
Default                                  : Yes
Forced                                   : Yes

Audio #2
ID                                       : 3
Format                                   : AC-3
Format/Info                              : Audio Coding 3
Mode extension                           : CM (complete main)
Format settings, Endianness              : Big
Codec ID                                 : A_AC3
Duration                                 : 1h 41mn
Bit rate mode                            : Constant
Bit rate                                 : 384 Kbps
Channel(s)                               : 6 channels
Channel positions                        : Front: L C R, Side: L R, LFE
Sampling rate                            : 48.0 KHz
Bit depth                                : 16 bits
Compression mode                         : Lossy
Delay relative to video                  : -42ms
Stream size                              : 279 MiB (7%)
Language                                 : English
Default                                  : No
Forced                                   : No


Download:
Share Online Share OnlineShare OnlineShare Online
 

Kommentare