Filecrypt zeigt vereinzelt Files als "n/a". Die Downloads sind trotzdem komplett.

DNS SERVER AENDERNum der staatlichen Zensur zu umgehen. Sollten wir von eurem Provider geseprrt werden, nutzt den TOR BROWSER oder ändert euren DNS SERVER.

Filmwünsche können bei uns im Forum abgegeben werden

Wir Speichern Nicht




 
 
 
Top Releases
The.Keeping.Hours.2017.Germa...
Der.die.Zeichen.liest.The.St...
Operation.Chromite.2016.Germ...
Jim.Knopf.und.Lukas.der.Loko...
Sicario.2.Soldado.2018.Germa...
Sicario.2.Soldado.2018.Germa...
Ein.Kind.zur.Zeit.German.DL....
Ein.Kind.zur.Zeit.German.DL....
Backstabbing.for.Beginners.2...
Backstabbing.for.Beginners.2...

Cinedubs
The.Happytime.Murders.Kein.S...
The.Happytime.Murders.Kein.S...
Peppermint.Angel.of.Vengeanc...
Peppermint.Angel.of.Vengeanc...
The.Nun.German.AC3D.DL.1080p...
Christopher.Robin.German.DL....
Christopher.Robin.German.DL....
A.Star.Is.Born.German.DL.AC3...
A.Star.Is.Born.German.DL.AC3...
Mission.Impossible.Fallout.G...

Neuerscheinungen 2017-18
Tage.wie.dieser.1996.German....
Romance.and.Cigarettes.2005....
Der.Boxer.1997.German.DL.108...
Wuff.Star.Weihnachten.2018.G...
Wuff.Star.Weihnachten.2018.G...
Der.sechste.Kontinent.1976.G...
Squirm.1976.MULTi.COMPLETE.B...
Strasse.der.Gewalt.White.Lin...
Darkman.II.The.Return.Of.Dur...
Spuk.von.draussen.1987.GERMA...

XXX
EvilAngel.Double.Duty.Booty....
EvilAngel.Double.Duty.Booty....
ATKGirlfriends.18.11.19.Kenz...
Anilos.18.11.20.Midge.Take.I...
ATKHairy.18.11.18.Lauren.Lau...
GirlFap.E67.Stephani.Moretti...
ATKGirlfriends.18.11.20.Gia....
AssTraffic.18.11.20.Alexis.C...
GirlFap.E68.Cayla.Lyons.Your...
ConorCoxxx.17.12.01.Kate.Eng...
Beauty-Angels.18.11.20.Jenif...
AllOver30.18.11.19.Lauren.Ph...
ConorCoxxx.17.12.15.Alura.Je...
ConorCoxxx.17.12.29.Marina.M...
ConorCoxxx.17.12.22.Payton.H...
ATKHairy.18.11.18.Nenetl.Avr...
BurningAngel.18.11.20.Rosaly...
BackroomCastingCouch.18.11.1...
AnalTeenAngels.18.11.20.Ange...
GirlsOutWest.18.11.19.Daliah...

3D
The.Art.of.Flight.3D.2011.Ge...
The.End.Of.The.World.3D.2010...
The.First.Avenger.Civil.War....
Die.Unglaublichen.2.2018.3D....
Skyscraper.3D.2018.MULTi.COM...
Ant-Man.And.The.Wasp.3D.2018...
Ant.Man.and.the.Wasp.3D.2018...
Die.Unglaublichen.2.3D.2018....
Die.Unglaublichen.2.2018.3D....
Die.Unglaublichen.2.2018.3D....
Sharknado.6.The.Last.One.3D....
Deep.Kleine.Helden.der.Tiefs...
Deep.3D.2017.MULTI.COMPLETE....
Detective.Dee.und.die.Legend...
Detective.Dee.und.die.Legend...

Old_Stuff
Dunkirk.1958.COMPLETE.BLURAY...
Das.Wunder.von.Manhattan.199...
The.Amazing.Spiderman.2.Rise...
Rise.of.the.Predator.2014.Ge...
Detective.Dee.und.das.Geheim...
Detective.Dee.Und.Der.Fluch....
Ghost.Rider.Spirit.of.Vengea...
Species.IV.Das.Erwachen.2007...
Species.IV.Das.Erwachen.2007...
Hotel.Transsilvanien.2012.Ge...
The.Dead.2010.German.DL.1080...
The.Dead.2.India.2013.German...
Britney.Spears.Live.The.Femm...
Buffy.The.Vampire.Slayer.199...
IMAX.Ride.Around.The.World.2...

Filme
Jim.Knopf.und.Lukas.der.Loko...
Mamma.Mia.Here.We.Go.Again.2...
Die.Reise.ins.Labyrinth.1986...
Tage.wie.dieser.1996.German....
Romance.and.Cigarettes.2005....
Der.Boxer.1997.German.720p.B...
D.Day.Allein.unter.Feinden.2...
Der.sechste.Kontinent.1976.G...
Alien.Resurrection.1997.Thea...
Topper.2.-.Das.Gespenstersch...
Mamma.Mia.Here.We.Go.Again.2...
Romance.and.Cigarettes.2005....
Lucky.Luke.1991.1992.3.Disc....
Mission.Impossible.Fallout.2...
Marvels.Agents.of.S.H.I.E.L....
Marvels.Agents.of.S.H.I.E.L....
Humans.S03.GERMAN.DL.720p.HD...
1000.Yards.Zwischen.Leben.un...
Dead.Draw.2016.GERMAN.DL.108...
Star.Wars.Episode.VIII.Die.l...
The.Return.of.the.First.Aven...
Angel.Town.UNCUT.REMASTERED....
Anger.of.the.Dead.2015.Germa...
Angriff.der.Killerbienen.199...

 
 
Operation.Chromite.2016.German.AC3.1080p.BluRay.x265-FuN

Jahr: 2016
Genre: Action , Kriegsfilm , Historie
Sprache: Deutsch AC3 | Englisch AC3
Laufzeit: 1h 50mn
Bitrate: 1 677 Kbps
Format: MKV
Größe: 1.30 GiB
Release:

Beschreibung:

Nord- und Südkorea befinden sich 1950 mitten in einem schweren Krieg und beklagen Opfer auf beiden Seiten. Südkorea wird von den US-Alliierten unterstützt, angeführt von General MacArthur (Liam Neeson). Um die nordkoreanischen Truppen aufzuhalten und ein Vordringen in den Süden zu verhindern, plant MacArthur ein außergewöhnliches Unterfangen. Er setzt alles auf's Spiel und schickt acht Soldaten, die von einem Marine-Leutnant (Lee Jung-Jae) angeführt werden, hinter die nordkoreanische Linie. Der Auftrag ist streng geheim – und sehr gefährlich. Mit der „Operation Chromite“, die als „Landung bei Incheon“ in die Geschichte eingehen wird, soll der gesamte Kriegsverlauf mit einem Schlag verändert werden. Ob der gefährliche Einsatz der Elitetruppe und MacArthur gelingen wird und der Krieg zu einem baldigen Ende kommen kann?




Format                                   : Matroska
Format version                           : Version 4 / Version 2
File size                                : 1.30 GiB
Duration                                 : 1h 50mn
Overall bit rate                         : 1 677 Kbps
Encoded date                             : UTC 2017-01-20T08:24:40Z
Writing application                      : mkvmerge v6.1.0 ('Old Devil') built on Mar  2 2013 14:32:37
Writing library                          : Lavf55.12.0

Video
ID                                       : 1
Format                                   : HEVC
Format/Info                              : High Efficiency Video Coding
Format profile                           : Main@L4.0
Codec ID                                 : V_MPEGH/ISO/HEVC
Duration                                 : 1h 50mn
Bit rate                                 : 1 260 Kbps
Width                                    : 1 898 pixels
Height                                   : 804 pixels
Display aspect ratio                     : 2.35:1
Frame rate mode                          : Constant
Frame rate                               : 23.976 fps
Color space                              : YUV
Chroma subsampling                       : 4:2:0
Bit depth                                : 8 bits
Bits/(Pixel*Frame)                       : 0.034
Stream size                              : 999 MiB (75%)
Writing library                          : x265 1.9:[Windows][GCC 4.9.0][64 bit] 8bit
Encoding settings                        : wpp / ctu=64 / min-cu-size=8 / max-tu-size=32 / tu-intra-depth=1 / tu-inter-depth=1 / me=1 / subme=2 / merange=57 / no-rect / no-amp / max-merge=2 / temporal-mvp / no-early-skip / rdpenalty=0 / no-tskip / no-tskip-fast / strong-intra-smoothing / no-lossless / no-cu-lossless / no-constrained-intra / no-fast-intra / open-gop / no-temporal-layers / interlace=0 / keyint=240 / min-keyint=24 / scenecut=40 / rc-lookahead=20 / lookahead-slices=5 / bframes=4 / bframe-bias=0 / b-adapt=2 / ref=3 / limit-refs=3 / no-limit-modes / weightp / no-weightb / aq-mode=1 / qg-size=32 / aq-strength=1.00 / cbqpoffs=0 / crqpoffs=0 / rd=3 / psy-rd=2.00 / rdoq-level=0 / psy-rdoq=0.00 / signhide / deblock / sao / no-sao-non-deblock / b-pyramid / cutree / no-intra-refresh / rc=crf / crf=23.0 / qcomp=0.60 / qpmin=0 / qpmax=51 / qpstep=4 / ipratio=1.40 / pbratio=1.30
Default                                  : Yes
Forced                                   : No

Audio
ID                                       : 2
Format                                   : AC-3
Format/Info                              : Audio Coding 3
Mode extension                           : CM (complete main)
Format settings, Endianness              : Big
Codec ID                                 : A_AC3
Duration                                 : 1h 50mn
Bit rate mode                            : Constant
Bit rate                                 : 384 Kbps
Channel(s)                               : 6 channels
Channel positions                        : Front: L C R, Side: L R, LFE
Sampling rate                            : 48.0 KHz
Bit depth                                : 16 bits
Compression mode                         : Lossy
Delay relative to video                  : -83ms
Stream size                              : 304 MiB (23%)
Language                                 : German
Default                                  : Yes
Forced                                   : Yes



Download:
Share Online Share OnlineShare OnlineShare Online
 

Kommentare