Filecrypt zeigt vereinzelt Files als "n/a". Die Downloads sind trotzdem komplett.

DNS SERVER AENDERNum der staatlichen Zensur zu umgehen. Sollten wir von eurem Provider geseprrt werden, nutzt den TOR BROWSER oder ändert euren DNS SERVER.

Filmwünsche können bei uns im Forum abgegeben werden

Wir Speichern Nicht




 
 
 
Top Releases
Burnt.Im.Rausch.der.Sterne.2...
Sicario.2.Soldado.2018.Germa...
Hotel.Artemis.German.DL.720p...
Hotel.Artemis.German.DL.1080...
Dead.in.a.Week.Oder.Geld.zur...
Dead.in.a.Week.Oder.Geld.zur...
Die.Welt.gehoert.dir.2018.Ge...
Die.Welt.gehoert.dir.2018.Ge...
Paradox.Kill.Zone.Bangkok.20...
Paradox.Kill.Zone.Bangkok.20...

Cinedubs
I.Still.See.You.Sie.lassen.d...
I.Still.See.You.Sie.lassen.d...
Braven.2018.German.AC3D.DL.1...
Braven.2018.German.AC3D.DL.7...
Smallfoot.Ein.eisigartiges.A...
Smallfoot.Ein.eisigartiges.A...
Halloween.German.DL.AC3.Dubb...
Halloween.German.DL.AC3.Dubb...
Freaky.Friday.German.DL.AC3....
Freaky.Friday.German.DL.AC3....

Neuerscheinungen 2017-18
Koenig.der.Loewen.The.Lion.K...
BuyBust.2018.DUAL.COMPLETE.B...
The.Darkest.Minds.Die.Ueberl...
Battle.2018.German.720p.WEB....
Battle.2018.German.1080p.WEB...
Angelas.Weihnachten.2018.Ger...
Angelas.Weihnachten.2018.Ger...
The.Mermaid.Lake.of.the.Dead...
The.Mermaid.Lake.of.the.Dead...
Ouija.Seance.The.Final.Game....

XXX
CuckoldSessions.18.11.25.Kat...
DesperateAmateurs.18.11.25.K...
EvilAngel.Top.Heavy.Sluts.XX...
ATKHairy.18.11.23.Lexa.XXX.1...
FootsieBabes.18.11.25.Lilu.M...
GirlsOutWest.18.11.25.Amber....
CzechEscortGirls.18.11.26.Ti...
DorcelClub.18.11.26.Alyssia....
DDFBusty.18.11.25.Victoria.J...
ATKGirlfriends.18.11.25.Lucy...
ATKHairy.18.11.26.Nenetl.Avr...
Cucked.18.11.26.Skylar.Snow....
AdultAuditions.E264.Paige.My...
FakeDrivingSchool.18.11.26.G...
EuroTeenErotica.18.11.26.Mia...
Cosmid.18.11.26.Allie.Reed.F...
GirlsTryAnal.18.11.25.Penny....
CzechEscortGirls.18.11.26.Ka...
FirstAnalQuest.18.11.25.Eva....
FitnessRooms.18.11.26.Boni.J...

3D
The.Art.of.Flight.3D.2011.Ge...
The.End.Of.The.World.3D.2010...
The.First.Avenger.Civil.War....
Die.Unglaublichen.2.2018.3D....
Skyscraper.3D.2018.MULTi.COM...
Ant-Man.And.The.Wasp.3D.2018...
Ant.Man.and.the.Wasp.3D.2018...
Die.Unglaublichen.2.3D.2018....
Die.Unglaublichen.2.2018.3D....
Die.Unglaublichen.2.2018.3D....
Sharknado.6.The.Last.One.3D....
Deep.Kleine.Helden.der.Tiefs...
Deep.3D.2017.MULTI.COMPLETE....
Detective.Dee.und.die.Legend...
Detective.Dee.und.die.Legend...

Old_Stuff
Akte.X.S03.German.DTS.DL.108...
Dunkirk.1958.COMPLETE.BLURAY...
Das.Wunder.von.Manhattan.199...
The.Amazing.Spiderman.2.Rise...
Rise.of.the.Predator.2014.Ge...
Detective.Dee.und.das.Geheim...
Detective.Dee.Und.Der.Fluch....
Ghost.Rider.Spirit.of.Vengea...
Species.IV.Das.Erwachen.2007...
Species.IV.Das.Erwachen.2007...
Hotel.Transsilvanien.2012.Ge...
The.Dead.2010.German.DL.1080...
The.Dead.2.India.2013.German...
Britney.Spears.Live.The.Femm...
Buffy.The.Vampire.Slayer.199...

Filme
Supernatural.S13.COMPLETE.DL...
Supernatural.S13.COMPLETE.DL...
Quantico.S03.GERMAN.DL.DUBBE...
Quantico.S03.GERMAN.DUBBED.7...
Marvels.Inhumans.S01.German....
Marvels.Inhumans.S01.German....
Der.Koenig.Der.Loewen.1994.G...
Der.Koenig.Der.Loewen.1994.G...
Cliffhanger.Nur.die.Starken....
Die.Verdammten.der.Meere.196...
Duell.der.Magier.2010.1080p....
Hotel.Transsilvanien.3.Ein.M...
Star.Wars.Rebels.S03D01-2.MU...
Die.Schoenen.der.Nacht.UNCUT...
Fear.the.Walking.Dead.S04D01...
Hotel.Transsilvanien.3.Ein.M...
The.Originals.S05.GERMAN.5.1...
The.Originals.S05.GERMAN.720...
Preacher.S03D01-3.COMPLETE.B...
Modern.Family.S09.GERMAN.DUB...
Ray.Donovan.S06.GERMAN.DUBBE...
Ray.Donovan.S06.GERMAN.DUBBE...
Outlander.S04.German.DD51.DL...
Outlander.S04.German.DD51.DL...

 
 
Quantico.S03.GERMAN.DUBBED.720p.WEB.h264-idTV

Jahr: 2018
Genre: Krimi | Drama | Mystery
Sprache: Deutsch AC3
Laufzeit: 41min je Folge
Bitrate: 2900 Kbps
Format: MKV
Größe: 1 GB je Folge
Release:

Beschreibung:

 

In „Quantico“ versammeln sich am titulären FBI-Ausbildungsort in Virginia die besten Rekruten, um das harte Training zum Agenten zu durchlaufen. Kurz nach der Ankunft der Neuankömmlinge stellt sich jedoch heraus, dass einer von ihnen verdächtigt wird, das Mastermind hinter dem größten Anschlag auf New York seit 9/11 zu sein. Nun geht die Suche nach dem Schuldigen los.

 

enthaltene Folgen:

Quantico.S03E01.GERMAN.DUBBED.720p.WEB.h264-idTV NEU

Quantico.S03E02.GERMAN.DUBBED.720p.WEB.h264-idTV NEU



General
Complete name                            : Quantico.S03E01.GERMAN.DUBBED.720p.WEB.h264-idTV\quantico.s03e01.german.dubbed.720p.web.h264-idtv.mkv
Format                                   : Matroska
Format version                           : Version 4 / Version 2
File size                                : 941 MiB
Duration                                 : 41mn 16s
Overall bit rate mode                    : Variable
Overall bit rate                         : 3 188 Kbps
Movie name                               : Quantico.S03E01.GERMAN.DUBBED.720p.WEB.h264-idTV
Encoded date                             : UTC 2018-12-02 15:01:14
Writing application                      : mkvmerge v19.0.0 ('Brave Captain') 64-bit
Writing library                          : libebml v1.3.5 + libmatroska v1.4.8
DURATION                                 : 00:40:26.649000000
NUMBER_OF_FRAMES                         : 687
NUMBER_OF_BYTES                          : 23242
_STATISTICS_WRITING_APP                  : mkvmerge v19.0.0 ('Brave Captain') 64-bit
_STATISTICS_WRITING_DATE_UTC             : 2018-12-02 15:01:14
_STATISTICS_TAGS                         : BPS DURATION NUMBER_OF_FRAMES NUMBER_OF_BYTES

Video
ID                                       : 1
Format                                   : AVC
Format/Info                              : Advanced Video Codec
Format profile                           : High@L3.1
Format settings, CABAC                   : Yes
Format settings, ReFrames                : 5 frames
Codec ID                                 : V_MPEG4/ISO/AVC
Duration                                 : 41mn 16s
Bit rate mode                            : Variable
Bit rate                                 : 2 933 Kbps
Maximum bit rate                         : 4 500 Kbps
Width                                    : 1 280 pixels
Height                                   : 720 pixels
Display aspect ratio                     : 16:9
Frame rate mode                          : Constant
Frame rate                               : 25.000 fps
Original frame rate                      : 23.976 fps
Color space                              : YUV
Chroma subsampling                       : 4:2:0
Bit depth                                : 8 bits
Scan type                                : Progressive
Bits/(Pixel*Frame)                       : 0.127
Stream size                              : 866 MiB (92%)
Default                                  : Yes
Forced                                   : No
Color primaries                          : BT.709
Transfer characteristics                 : BT.709
Matrix coefficients                      : BT.709

Audio
ID                                       : 2
Format                                   : AC-3
Format/Info                              : Audio Coding 3
Mode extension                           : CM (complete main)
Format settings, Endianness              : Big
Codec ID                                 : A_AC3
Duration                                 : 41mn 16s
Bit rate mode                            : Constant
Bit rate                                 : 192 Kbps
Channel(s)                               : 2 channels
Channel positions                        : Front: L R
Sampling rate                            : 48.0 KHz
Bit depth                                : 16 bits
Compression mode                         : Lossy
Stream size                              : 56.7 MiB (6%)
Language                                 : German
Default                                  : Yes
Forced                                   : Yes

Text #1
ID                                       : 3
Format                                   : UTF-8
Codec ID                                 : S_TEXT/UTF8
Codec ID/Info                            : UTF-8 Plain Text
Language                                 : German
Default                                  : Yes
Forced                                   : Yes

Text #2
ID                                       : 4
Format                                   : UTF-8
Codec ID                                 : S_TEXT/UTF8
Codec ID/Info                            : UTF-8 Plain Text
Language                                 : German
Default                                  : No
Forced                                   : No



Download:
Share-Online.biz Share-Online.bizShare-Online.bizShare-Online.biz | Rapidgator.net Rapidgator.netRapidgator.netRapidgator.net
 

Kommentare