Filecrypt zeigt vereinzelt Files als "n/a". Die Downloads sind trotzdem komplett.

DNS SERVER AENDERNum der staatlichen Zensur zu umgehen. Sollten wir von eurem Provider geseprrt werden, nutzt den TOR BROWSER oder ändert euren DNS SERVER.

Filmwünsche können bei uns im Forum abgegeben werden

Wir Speichern Nicht




 
 
 
Top Releases
Ideal.Home.Ein.Vater.kommt.s...
Ideal.Home.Ein.Vater.kommt.s...
Cam.2018.German.AC3.DL.1080p...
Die.Frau.die.vorausgeht.Germ...
Die.Frau.die.vorausgeht.Germ...
Deine.Juliet.2018.German.DL....
Deine.Juliet.2018.German.720...
Die.Frau.die.vorausgeht.2017...
Ideal.Home.2018.MULTi.COMPLE...
Destination.Wedding.2018.Ger...

Cinedubs
I.Still.See.You.Sie.lassen.d...
I.Still.See.You.Sie.lassen.d...
Braven.2018.German.AC3D.DL.1...
Braven.2018.German.AC3D.DL.7...
Smallfoot.Ein.eisigartiges.A...
Smallfoot.Ein.eisigartiges.A...
Halloween.German.DL.AC3.Dubb...
Halloween.German.DL.AC3.Dubb...
Freaky.Friday.German.DL.AC3....
Freaky.Friday.German.DL.AC3....

Neuerscheinungen 2017-18
The.Scorpion.King.5.Das.Buch...
Scorpion.King.5.Das.Buch.der...
Event.Horizon.REMASTERED.199...
Sicario.2.Soldado.2018.Germa...
Ouija.Seance.The.Final.Game....
Antz.1998.German.DL.1080p.Bl...
American.Romance.2016.COMPLE...
BuyBust.GERMAN.2018.DL.720p....
BuyBust.GERMAN.2018.DL.1080p...
The.Mermaid.Lake.of.the.Dead...

XXX
PlayboyPlus.18.11.26.Bianka....
LaurenPhillips.15.08.03.POV....
GirlsWay.18.11.26.Lyra.Law.A...
LaurenPhillips.15.09.05.Bend...
LaurenPhillips.15.10.10.Anal...
OldYoungLesbianLove.18.11.26...
ProducersFun.17.11.17.Britta...
Nympho.18.11.26.Amia.Miley.X...
PornMegaLoad.18.11.24.Codi.V...
PrivateSociety.18.11.24.Embe...
PlumperPass.18.11.26.Maria.B...
EvilAngel.Hookup.Hotshot.Sex...
PlayboyPlus.18.11.25.LA.Cast...
LaurenPhillips.15.09.12.Char...
POVPornstars.18.11.22.Kenzie...
LaurenPhillips.15.09.19.Crea...
LaurenPhillips.15.10.15.Mira...
ProducersFun.17.11.17.Adrian...
ProducersFun.17.11.17.Lexxxu...
LaurenPhillips.15.10.08.Buff...

3D
The.Art.of.Flight.3D.2011.Ge...
The.End.Of.The.World.3D.2010...
The.First.Avenger.Civil.War....
Die.Unglaublichen.2.2018.3D....
Skyscraper.3D.2018.MULTi.COM...
Ant-Man.And.The.Wasp.3D.2018...
Ant.Man.and.the.Wasp.3D.2018...
Die.Unglaublichen.2.3D.2018....
Die.Unglaublichen.2.2018.3D....
Die.Unglaublichen.2.2018.3D....
Sharknado.6.The.Last.One.3D....
Deep.Kleine.Helden.der.Tiefs...
Deep.3D.2017.MULTI.COMPLETE....
Detective.Dee.und.die.Legend...
Detective.Dee.und.die.Legend...

Old_Stuff
Akte.X.S04.German.DTS.DL.108...
Akte.X.S03.German.DTS.DL.108...
Dunkirk.1958.COMPLETE.BLURAY...
Das.Wunder.von.Manhattan.199...
The.Amazing.Spiderman.2.Rise...
Rise.of.the.Predator.2014.Ge...
Detective.Dee.und.das.Geheim...
Detective.Dee.Und.Der.Fluch....
Ghost.Rider.Spirit.of.Vengea...
Species.IV.Das.Erwachen.2007...
Species.IV.Das.Erwachen.2007...
Hotel.Transsilvanien.2012.Ge...
The.Dead.2010.German.DL.1080...
The.Dead.2.India.2013.German...
Britney.Spears.Live.The.Femm...

Filme
Der.sechs.Millionen.Dollar.M...
Last.Knights.Die.Ritter.des....
Under.Supicion.Moerderisches...
Die.Liebe.in.mir.2007.German...
Kuess.den.Frosch.2009.German...
Versailles.S01-S03.COMPLETE....
Marvels.Inhumans.S01.German....
Marvels.Inhumans.S01.German....
Black.Lightning.S02.GERMAN.D...
Black.Lightning.S02.GERMAN.D...
68.Kill.2017.German.DL.1080p...
Beyond.Skyline.2017.German.D...
Edge.of.Tomorrow.2014.German...
Hotel.Artemis.2018.German.DT...
Hotel.Transsilvanien.3.Ein.M...
Dead.in.a.Week.Oder.Geld.zur...
Boarding.School.2018.German....
Twilight.Biss.zum.Morgengrau...
Jaeger.der.Apokalypse.1980.G...
The.Mermaid.Lake.of.the.Dead...
Twilight.Biss.zum.Morgengrau...
Liebe.geht.seltsame.Wege.201...
The.Operator.Eine.Marble.Hor...
10x10.2018.GERMAN.DL.1080p.B...

 
 
Under.Supicion.Moerderisches.Spiel.2000.German.AC3.DL.1080p.BluRay.x265-FuN

Jahr: 2000
Genre: Drama, Krimi, Thriller
Sprache: Deutsch AC3 | Englisch AC3
Laufzeit: 1h 50mn
Bitrate: 5 201 Kbps
Format: MKV
Größe: 4.03 GiB
Release:

Beschreibung:

Puerto Rico. Beim Joggen findet der angesehene Rechtsanwalt Henry Hearst (Gene Hackman) die Leiche eines Kindes. Er meldet den Vorfall der Polizei. Captain Victor Benezet (Morgan Freeman) leitet die Untersuchungen. Es handelt sich bereits um die zweite Kinderleiche innerhalb von 16 Tagen. Während eines großen Festes befragt Benezet Hearst, mit dem er auch befreundet ist. Bei der Befragung jedoch verstrickt sich Hearst zunehmend in Widersprüche, was Benezet aufmerksam macht. Benezet hakt nach und verhört im Nebenzimmer auch Hearsts Frau Chantal (Monica Bellucci). Hearst gerät immer mehr unter Druck. Er versucht seine widersprüchlichen Aussagen damit zu erklären, dass seine Ehe gescheitert sei und er sich regelmäßig mit jungen Mädchen vergnüge. Weil dies nicht an die Öffentlichkeit gelangen sollte, habe er gelogen. Doch Benezet ist noch immer misstrauisch ...




File size                                : 4.03 GiB
Duration                                 : 1h 50mn
Overall bit rate                         : 5 201 Kbps
Movie name                               : hovac-moerderischesspiel-avc
Encoded date                             : UTC 2018-11-21 17:32:46
Writing application                      : mkvmerge v28.2.0 ('The Awakening') 64-bit
Writing library                          : libebml v1.3.6 + libmatroska v1.4.9
DURATION                                 : 01:44:49.239000000
NUMBER_OF_FRAMES                         : 1006
NUMBER_OF_BYTES                          : 7479148
_STATISTICS_WRITING_APP                  : mkvmerge v28.2.0 ('The Awakening') 64-bit
_STATISTICS_WRITING_DATE_UTC             : 2018-11-21 17:32:46
_STATISTICS_TAGS                         : BPS DURATION NUMBER_OF_FRAMES NUMBER_OF_BYTES

Video
ID                                       : 1
Format                                   : HEVC
Format/Info                              : High Efficiency Video Coding
Format profile                           : Main@L4.0
Codec ID                                 : V_MPEGH/ISO/HEVC
Duration                                 : 1h 50mn
Bit rate                                 : 4 329 Kbps
Width                                    : 1 920 pixels
Height                                   : 1 080 pixels
Display aspect ratio                     : 16:9
Frame rate mode                          : Constant
Frame rate                               : 23.976 fps
Color space                              : YUV
Chroma subsampling                       : 4:2:0
Bit depth                                : 8 bits
Bits/(Pixel*Frame)                       : 0.087
Stream size                              : 3.36 GiB (83%)
Writing library                          : x265 2.6:[Linux][GCC 6.4.0][64 bit] 8bit+10bit+12bit
Encoding settings                        : cpuid=1173503 / frame-threads=3 / wpp / no-pmode / no-pme / no-psnr / no-ssim / log-level=2 / input-csp=1 / input-res=1920x1080 / interlace=0 / total-frames=0 / level-idc=0 / high-tier=1 / uhd-bd=0 / ref=2 / no-allow-non-conformance / no-repeat-headers / annexb / no-aud / no-hrd / info / hash=0 / no-temporal-layers / open-gop / min-keyint=24 / keyint=240 / bframes=4 / b-adapt=0 / b-pyramid / bframe-bias=0 / rc-lookahead=15 / lookahead-slices=6 / scenecut=40 / no-intra-refresh / ctu=64 / min-cu-size=8 / no-rect / no-amp / max-tu-size=32 / tu-inter-depth=1 / tu-intra-depth=1 / limit-tu=0 / rdoq-level=0 / dynamic-rd=0.00 / no-ssim-rd / signhide / no-tskip / nr-intra=0 / nr-inter=0 / no-constrained-intra / no-strong-intra-smoothing / max-merge=2 / limit-refs=3 / no-limit-modes / me=1 / subme=2 / merange=57 / temporal-mvp / weightp / no-weightb / no-analyze-src-pics / deblock=0:0 / sao / no-sao-non-deblock / rd=2 / early-skip / rskip / fast-intra / no-tskip-fast / no-cu-lossless / no-b-intra / no-splitrd-skip / rdpenalty=0 / psy-rd=2.00 / psy-rdoq=0.00 / no-rd-refine / analysis-reuse-mode=0 / no-lossless / cbqpoffs=0 / crqpoffs=0 / rc=crf / crf=22.0 / qcomp=0.60 / qpstep=4 / stats-write=0 / stats-read=0 / ipratio=1.40 / pbratio=1.30 / aq-mode=1 / aq-strength=1.00 / cutree / zone-count=0 / no-strict-cbr / qg-size=32 / no-rc-grain / qpmax=69 / qpmin=0 / no-const-vbv / sar=1 / overscan=0 / videoformat=5 / range=0 / colorprim=1 / transfer=1 / colormatrix=1 / chromaloc=0 / display-window=0 / max-cll=0,0 / min-luma=0 / max-luma=255 / log2-max-poc-lsb=8 / vui-timing-info / vui-hrd-info / slices=1 / no-opt-qp-pps / no-opt-ref-list-length-pps / no-multi-pass-opt-rps / scenecut-bias=0.05 / no-opt-cu-delta-qp / no-aq-motion / no-hdr / no-hdr-opt / no-dhdr10-opt / analysis-reuse-level=5 / scale-factor=0 / refine-intra=0 / refine-inter=0 / refine-mv=0 / no-limit-sao / ctu-info=0 / no-lowpass-dct / refine-mv-type=0 / copy-pic=1
Default                                  : Yes
Forced                                   : No
DURATION                                 : 01:50:57.735000000
NUMBER_OF_FRAMES                         : 159626
NUMBER_OF_BYTES                          : 3677248206
_STATISTICS_WRITING_APP                  : mkvmerge v28.2.0 ('The Awakening') 64-bit
_STATISTICS_WRITING_DATE_UTC             : 2018-11-21 17:32:46
_STATISTICS_TAGS                         : BPS DURATION NUMBER_OF_FRAMES NUMBER_OF_BYTES

Audio #1
ID                                       : 2
Format                                   : AC-3
Format/Info                              : Audio Coding 3
Mode extension                           : CM (complete main)
Format settings, Endianness              : Big
Codec ID                                 : A_AC3
Duration                                 : 1h 50mn
Bit rate mode                            : Constant
Bit rate                                 : 384 Kbps
Channel(s)                               : 6 channels
Channel positions                        : Front: L C R, Side: L R, LFE
Sampling rate                            : 48.0 KHz
Bit depth                                : 16 bits
Compression mode                         : Lossy
Stream size                              : 305 MiB (7%)
Title                                    : Surround
Language                                 : German
Default                                  : Yes
Forced                                   : No
DURATION                                 : 01:50:57.728000000
NUMBER_OF_FRAMES                         : 208054
NUMBER_OF_BYTES                          : 319570944
_STATISTICS_WRITING_APP                  : mkvmerge v28.2.0 ('The Awakening') 64-bit
_STATISTICS_WRITING_DATE_UTC             : 2018-11-21 17:32:46
_STATISTICS_TAGS                         : BPS DURATION NUMBER_OF_FRAMES NUMBER_OF_BYTES

Audio #2
ID                                       : 3
Format                                   : AC-3
Format/Info                              : Audio Coding 3
Mode extension                           : CM (complete main)
Format settings, Endianness              : Big
Codec ID                                 : A_AC3
Duration                                 : 1h 50mn
Bit rate mode                            : Constant
Bit rate                                 : 384 Kbps
Channel(s)                               : 6 channels
Channel positions                        : Front: L C R, Side: L R, LFE
Sampling rate                            : 48.0 KHz
Bit depth                                : 16 bits
Compression mode                         : Lossy
Stream size                              : 305 MiB (7%)
Title                                    : Surround
Language                                 : English
Default                                  : No
Forced                                   : No
DURATION                                 : 01:50:57.728000000
NUMBER_OF_FRAMES                         : 208054
NUMBER_OF_BYTES                          : 319570944
_STATISTICS_WRITING_APP                  : mkvmerge v28.2.0 ('The Awakening') 64-bit
_STATISTICS_WRITING_DATE_UTC             : 2018-11-21 17:32:46
_STATISTICS_TAGS                         : BPS DURATION NUMBER_OF_FRAMES NUMBER_OF_BYTES



Download:
Share Online Share OnlineShare OnlineShare Online
 

Kommentare