HD-AREA wünscht Euch eine besinnliche Weihnachtszeit ;)

DNS SERVER AENDERNum der staatlichen Zensur zu umgehen. Sollten wir von eurem Provider geseprrt werden, nutzt den TOR BROWSER oder ändert euren DNS SERVER.

Filmwünsche können bei uns im Forum abgegeben werden

Wir Speichern Nicht




 
 
 
Top Releases
Schneefloeckchen.2017.German...
Catch.Me.2018.German.DL.1080...
Catch.Me.2018.German.DL.1080...
Catch.Me.Tag.2018.MULTI.COMP...
Earthquake.Die.Welt.Am.Abgru...
Earthquake.Die.Welt.Am.Abgru...
Earthquake.Die.Welt.Am.Abgru...
Earthquake.Die.Welt.Am.Abgru...
Paradox.Kill.Zone.Bangkok.20...
I.Tonya.2017.German.AC3.1080...

Cinedubs
Venom.German.DL.AC3.Dubbed.1...
Venom.2018.German.AC3D.5.1.D...
Venom.2018.German.AC3D.5.1.D...
Das.krumme.Haus.2017.GERMAN....
Das.krumme.Haus.2017.GERMAN....
I.Still.See.You.Sie.lassen.d...
I.Still.See.You.Sie.lassen.d...
Braven.2018.German.AC3D.DL.1...
Braven.2018.German.AC3D.DL.7...
Smallfoot.Ein.eisigartiges.A...

Neuerscheinungen 2017-18
Skyscraper.2018.German.AC3.1...
Meine.teuflisch.gute.Freundi...
Occupation.2018.GERMAN.DL.AC...
Occupation.2018.GERMAN.DL.AC...
Braven.2018.German.DTSD.DL.7...
Braven.2018.German.DTSD.DL.1...
Braven.2018.German.DTSD.DL.1...
Annie.1982.COMPLETE.BLURAY.i...
Reprisal.Nimm.Dir.was.Dir.ge...
Catch.Me.2018.German.720p.Bl...

XXX
Club.One.9.XXX.1080p.WEBRip....
Club.One.9.XXX.720p.WEBRip.M...
Black.Street.Hookers.105.XXX...
Black.Street.Hookers.105.XXX...
Cosmid.18.12.03.Abigail.Andr...
ConorCoxxx.18.06.08.Scarlett...
CrowdBondage.18.12.03.Susy.G...
DesperateAmateurs.18.12.02.B...
ClaudiaMarie.18.11.25.Mr.Mar...
DateSlam.18.12.03.Kelly.Horn...
DickOnTrip.18.12.03.Black.Wh...
ConorCoxxx.18.07.13.Nadia.Wh...
CzechCasting.18.12.01.Nikol....
CreampieInAsia.18.11.30.Pon....
ConorCoxxx.18.07.20.Marica.H...
Cosmid.18.12.01.Bella.Bruni....
ConorCoxxx.18.11.23.Ashton.B...
ConorCoxxx.18.06.29.Erica.La...
ATKGirlfriends.18.12.01.Zoe....
ClubSeventeen.18.12.01.Aurel...

3D
The.Art.of.Flight.3D.2011.Ge...
The.End.Of.The.World.3D.2010...
The.First.Avenger.Civil.War....
Die.Unglaublichen.2.2018.3D....
Skyscraper.3D.2018.MULTi.COM...
Ant-Man.And.The.Wasp.3D.2018...
Ant.Man.and.the.Wasp.3D.2018...
Die.Unglaublichen.2.3D.2018....
Die.Unglaublichen.2.2018.3D....
Die.Unglaublichen.2.2018.3D....
Sharknado.6.The.Last.One.3D....
Deep.Kleine.Helden.der.Tiefs...
Deep.3D.2017.MULTI.COMPLETE....
Detective.Dee.und.die.Legend...
Detective.Dee.und.die.Legend...

Old_Stuff
Akte.X.S04.German.DTS.DL.108...
Akte.X.S03.German.DTS.DL.108...
Dunkirk.1958.COMPLETE.BLURAY...
Das.Wunder.von.Manhattan.199...
The.Amazing.Spiderman.2.Rise...
Rise.of.the.Predator.2014.Ge...
Detective.Dee.und.das.Geheim...
Detective.Dee.Und.Der.Fluch....
Ghost.Rider.Spirit.of.Vengea...
Species.IV.Das.Erwachen.2007...
Species.IV.Das.Erwachen.2007...
Hotel.Transsilvanien.2012.Ge...
The.Dead.2010.German.DL.1080...
The.Dead.2.India.2013.German...
Britney.Spears.Live.The.Femm...

Filme
Arielle.die.Meerjungfrau.198...
Road.to.Hell.UNCUT.2016.Germ...
Die.Hitler.Chronik.2018.COMP...
Best.Laid.Plans.1999.German....
Chaotische.Weihnachten.1988....
Jungle.2017.German.DL.1080p....
Die.haarstrawubende.Reise.in...
The.Walking.Dead.S08.COMPLET...
Justice.League.Dark.2017.Ger...
Air.Force.One.1997.UHD2BD.DL...
Rare.Exports.2010.German.AC3...
Logan.Lucky.2017.German.DL.1...
How.to.Be.Single.2016.German...
Housesitter.Luegen.haben.sch...
Die.Stunde.des.Headhunter.19...
Swedish.Dicks.S02.GERMAN.720...
Wildlife.Vol.1.Striker.Anato...
Criminal.Minds.S13.COMPLETE....
Snatch.S02.German.DL.DUBBED....
Snatch.S02.German.DL.DUBBED....
Killjoys.S04.German.DD51.Dub...
Killjoys.S04.German.DD51.Dub...
Robin.Hood.Ein.Leben.fuer.Ri...
Ghost.Town.GERMAN.1988.DL.72...

 
 
Arielle.die.Meerjungfrau.1989.German.AC3.ML.1080p.BluRay.x265-FuN

Jahr: 1989
Genre: Animation, Fantasy
Sprache: Deutsch AC3 | Englisch AC3
Laufzeit: 1h 22mn
Bitrate: 4 198 Kbps
Format: MKV
Größe: 2.43 GiB
Release:

Beschreibung:

Unten im Meer regiert der Meereskönig Triton die Unterwasserwelt. Anders als die meisten Meeresbewohner träumt seine Tochter Arielle, die Meerjungfrau, jedoch davon, ein Mensch zu sein und das Leben an Land kennenzulernen. So schwimmt sie eines Tages an die Meeresoberfläche und rettet dort den Prinzen Eric bei einem Sturm das Leben. Verliebt in den Menschen, der seine Retterin nie zu Gesicht bekommen hat, lässt sich die kleine Meerjungfrau auf einen Pakt mit der Meerhexe Ursula ein, die ihr ein Paar Beine verspricht, wenn Arielle ihr dafür ihre schöne Stimme gibt.




File size                                : 2.43 GiB
Duration                                 : 1h 22mn
Overall bit rate                         : 4 198 Kbps
Movie name                               : The Little Mermaid Diamond Edition - Blu-ray?
Encoded date                             : UTC 2018-12-03 14:23:43
Writing application                      : mkvmerge v28.2.0 ('The Awakening') 64-bit
Writing library                          : libebml v1.3.6 + libmatroska v1.4.9

Video
ID                                       : 1
Format                                   : HEVC
Format/Info                              : High Efficiency Video Coding
Format profile                           : Main@L4.0
Codec ID                                 : V_MPEGH/ISO/HEVC
Duration                                 : 1h 22mn
Bit rate                                 : 3 027 Kbps
Width                                    : 1 920 pixels
Height                                   : 1 080 pixels
Display aspect ratio                     : 16:9
Frame rate mode                          : Constant
Frame rate                               : 23.976 fps
Color space                              : YUV
Chroma subsampling                       : 4:2:0
Bit depth                                : 8 bits
Bits/(Pixel*Frame)                       : 0.061
Stream size                              : 1.75 GiB (72%)
Writing library                          : x265 2.6:[Linux][GCC 6.4.0][64 bit] 8bit+10bit+12bit
Encoding settings                        : cpuid=1173503 / frame-threads=3 / wpp / no-pmode / no-pme / no-psnr / no-ssim / log-level=2 / input-csp=1 / input-res=1920x1080 / interlace=0 / total-frames=0 / level-idc=0 / high-tier=1 / uhd-bd=0 / ref=3 / no-allow-non-conformance / no-repeat-headers / annexb / no-aud / no-hrd / info / hash=0 / no-temporal-layers / open-gop / min-keyint=24 / keyint=240 / bframes=4 / b-adapt=2 / b-pyramid / bframe-bias=0 / rc-lookahead=20 / lookahead-slices=6 / scenecut=40 / no-intra-refresh / ctu=64 / min-cu-size=8 / no-rect / no-amp / max-tu-size=32 / tu-inter-depth=1 / tu-intra-depth=1 / limit-tu=0 / rdoq-level=0 / dynamic-rd=0.00 / no-ssim-rd / signhide / no-tskip / nr-intra=0 / nr-inter=0 / no-constrained-intra / strong-intra-smoothing / max-merge=2 / limit-refs=3 / no-limit-modes / me=1 / subme=2 / merange=57 / temporal-mvp / weightp / no-weightb / no-analyze-src-pics / deblock=0:0 / sao / no-sao-non-deblock / rd=3 / no-early-skip / rskip / no-fast-intra / no-tskip-fast / no-cu-lossless / no-b-intra / no-splitrd-skip / rdpenalty=0 / psy-rd=2.00 / psy-rdoq=0.00 / no-rd-refine / analysis-reuse-mode=0 / no-lossless / cbqpoffs=0 / crqpoffs=0 / rc=crf / crf=23.0 / qcomp=0.60 / qpstep=4 / stats-write=0 / stats-read=0 / ipratio=1.40 / pbratio=1.30 / aq-mode=1 / aq-strength=1.00 / cutree / zone-count=0 / no-strict-cbr / qg-size=32 / no-rc-grain / qpmax=69 / qpmin=0 / no-const-vbv / sar=1 / overscan=0 / videoformat=5 / range=0 / colorprim=1 / transfer=1 / colormatrix=1 / chromaloc=0 / display-window=0 / max-cll=0,0 / min-luma=0 / max-luma=255 / log2-max-poc-lsb=8 / vui-timing-info / vui-hrd-info / slices=1 / no-opt-qp-pps / no-opt-ref-list-length-pps / no-multi-pass-opt-rps / scenecut-bias=0.05 / no-opt-cu-delta-qp / no-aq-motion / no-hdr / no-hdr-opt / no-dhdr10-opt / analysis-reuse-level=5 / scale-factor=0 / refine-intra=0 / refine-inter=0 / refine-mv=0 / no-limit-sao / ctu-info=0 / no-lowpass-dct / refine-mv-type=0 / copy-pic=1
Language                                 : German
Default                                  : Yes
Forced                                   : No
DURATION                                 : 01:22:48.672000000
NUMBER_OF_FRAMES                         : 119129
NUMBER_OF_BYTES                          : 1870778268
_STATISTICS_WRITING_APP                  : mkvmerge v28.2.0 ('The Awakening') 64-bit
_STATISTICS_WRITING_DATE_UTC             : 2018-12-03 14:23:43
_STATISTICS_TAGS                         : BPS DURATION NUMBER_OF_FRAMES NUMBER_OF_BYTES

Audio #1
ID                                       : 2
Format                                   : AC-3
Format/Info                              : Audio Coding 3
Format profile                           : Dolby Digital
Mode extension                           : CM (complete main)
Format settings, Endianness              : Big
Codec ID                                 : A_AC3
Duration                                 : 1h 22mn
Bit rate mode                            : Constant
Bit rate                                 : 320 Kbps
Channel(s)                               : 2 channels
Channel positions                        : Front: L R
Sampling rate                            : 48.0 KHz
Bit depth                                : 16 bits
Compression mode                         : Lossy
Stream size                              : 190 MiB (8%)
Title                                    : 1989 - Erstsynchro
Language                                 : German
Default                                  : Yes
Forced                                   : No
DURATION                                 : 01:22:48.704000000
NUMBER_OF_FRAMES                         : 155272
NUMBER_OF_BYTES                          : 238497792
_STATISTICS_WRITING_APP                  : mkvmerge v28.2.0 ('The Awakening') 64-bit
_STATISTICS_WRITING_DATE_UTC             : 2018-12-03 14:23:43
_STATISTICS_TAGS                         : BPS DURATION NUMBER_OF_FRAMES NUMBER_OF_BYTES

Audio #2
ID                                       : 3
Format                                   : AC-3
Format/Info                              : Audio Coding 3
Mode extension                           : CM (complete main)
Format settings, Endianness              : Big
Codec ID                                 : A_AC3
Duration                                 : 1h 22mn
Bit rate mode                            : Constant
Bit rate                                 : 384 Kbps
Channel(s)                               : 6 channels
Channel positions                        : Front: L C R, Side: L R, LFE
Sampling rate                            : 48.0 KHz
Bit depth                                : 16 bits
Compression mode                         : Lossy
Stream size                              : 227 MiB (9%)
Title                                    : 1998 - Neusynchro
Language                                 : German
Default                                  : No
Forced                                   : No
DURATION                                 : 01:22:48.704000000
NUMBER_OF_FRAMES                         : 155272
NUMBER_OF_BYTES                          : 238497792
_STATISTICS_WRITING_APP                  : mkvmerge v28.2.0 ('The Awakening') 64-bit
_STATISTICS_WRITING_DATE_UTC             : 2018-12-03 14:23:43
_STATISTICS_TAGS                         : BPS DURATION NUMBER_OF_FRAMES NUMBER_OF_BYTES



Download:
Share Online Share OnlineShare OnlineShare Online
 

Kommentare