HD-AREA wünscht Euch eine besinnliche Weihnachtszeit ;)

DNS SERVER AENDERNum der staatlichen Zensur zu umgehen. Sollten wir von eurem Provider geseprrt werden, nutzt den TOR BROWSER oder ändert euren DNS SERVER.

Filmwünsche können bei uns im Forum abgegeben werden

Wir Speichern Nicht




 
 
 
Top Releases
Schneefloeckchen.2017.German...
Catch.Me.2018.German.DL.1080...
Catch.Me.2018.German.DL.1080...
Catch.Me.Tag.2018.MULTI.COMP...
Earthquake.Die.Welt.Am.Abgru...
Earthquake.Die.Welt.Am.Abgru...
Earthquake.Die.Welt.Am.Abgru...
Earthquake.Die.Welt.Am.Abgru...
Paradox.Kill.Zone.Bangkok.20...
I.Tonya.2017.German.AC3.1080...

Cinedubs
Venom.German.DL.AC3.Dubbed.1...
Venom.2018.German.AC3D.5.1.D...
Venom.2018.German.AC3D.5.1.D...
Das.krumme.Haus.2017.GERMAN....
Das.krumme.Haus.2017.GERMAN....
I.Still.See.You.Sie.lassen.d...
I.Still.See.You.Sie.lassen.d...
Braven.2018.German.AC3D.DL.1...
Braven.2018.German.AC3D.DL.7...
Smallfoot.Ein.eisigartiges.A...

Neuerscheinungen 2017-18
Skyscraper.2018.German.AC3.1...
Meine.teuflisch.gute.Freundi...
Occupation.2018.GERMAN.DL.AC...
Occupation.2018.GERMAN.DL.AC...
Braven.2018.German.DTSD.DL.7...
Braven.2018.German.DTSD.DL.1...
Braven.2018.German.DTSD.DL.1...
Annie.1982.COMPLETE.BLURAY.i...
Reprisal.Nimm.Dir.was.Dir.ge...
Catch.Me.2018.German.720p.Bl...

XXX
Club.One.9.XXX.1080p.WEBRip....
Club.One.9.XXX.720p.WEBRip.M...
Black.Street.Hookers.105.XXX...
Black.Street.Hookers.105.XXX...
Cosmid.18.12.03.Abigail.Andr...
ConorCoxxx.18.06.08.Scarlett...
CrowdBondage.18.12.03.Susy.G...
DesperateAmateurs.18.12.02.B...
ClaudiaMarie.18.11.25.Mr.Mar...
DateSlam.18.12.03.Kelly.Horn...
DickOnTrip.18.12.03.Black.Wh...
ConorCoxxx.18.07.13.Nadia.Wh...
CzechCasting.18.12.01.Nikol....
CreampieInAsia.18.11.30.Pon....
ConorCoxxx.18.07.20.Marica.H...
Cosmid.18.12.01.Bella.Bruni....
ConorCoxxx.18.11.23.Ashton.B...
ConorCoxxx.18.06.29.Erica.La...
ATKGirlfriends.18.12.01.Zoe....
ClubSeventeen.18.12.01.Aurel...

3D
The.Art.of.Flight.3D.2011.Ge...
The.End.Of.The.World.3D.2010...
The.First.Avenger.Civil.War....
Die.Unglaublichen.2.2018.3D....
Skyscraper.3D.2018.MULTi.COM...
Ant-Man.And.The.Wasp.3D.2018...
Ant.Man.and.the.Wasp.3D.2018...
Die.Unglaublichen.2.3D.2018....
Die.Unglaublichen.2.2018.3D....
Die.Unglaublichen.2.2018.3D....
Sharknado.6.The.Last.One.3D....
Deep.Kleine.Helden.der.Tiefs...
Deep.3D.2017.MULTI.COMPLETE....
Detective.Dee.und.die.Legend...
Detective.Dee.und.die.Legend...

Old_Stuff
Akte.X.S04.German.DTS.DL.108...
Akte.X.S03.German.DTS.DL.108...
Dunkirk.1958.COMPLETE.BLURAY...
Das.Wunder.von.Manhattan.199...
The.Amazing.Spiderman.2.Rise...
Rise.of.the.Predator.2014.Ge...
Detective.Dee.und.das.Geheim...
Detective.Dee.Und.Der.Fluch....
Ghost.Rider.Spirit.of.Vengea...
Species.IV.Das.Erwachen.2007...
Species.IV.Das.Erwachen.2007...
Hotel.Transsilvanien.2012.Ge...
The.Dead.2010.German.DL.1080...
The.Dead.2.India.2013.German...
Britney.Spears.Live.The.Femm...

Filme
Road.to.Hell.UNCUT.2016.Germ...
Die.Hitler.Chronik.2018.COMP...
Best.Laid.Plans.1999.German....
Chaotische.Weihnachten.1988....
Jungle.2017.German.DL.1080p....
Die.haarstrawubende.Reise.in...
The.Walking.Dead.S08.COMPLET...
Justice.League.Dark.2017.Ger...
Air.Force.One.1997.UHD2BD.DL...
Rare.Exports.2010.German.AC3...
Logan.Lucky.2017.German.DL.1...
How.to.Be.Single.2016.German...
Housesitter.Luegen.haben.sch...
Die.Stunde.des.Headhunter.19...
Swedish.Dicks.S02.GERMAN.720...
Wildlife.Vol.1.Striker.Anato...
Criminal.Minds.S13.COMPLETE....
Snatch.S02.German.DL.DUBBED....
Snatch.S02.German.DL.DUBBED....
Killjoys.S04.German.DD51.Dub...
Killjoys.S04.German.DD51.Dub...
Robin.Hood.Ein.Leben.fuer.Ri...
Ghost.Town.GERMAN.1988.DL.72...
Donner.ueber.dem.Indischen.O...

 
 
Occupation.2018.GERMAN.DL.AC3D.720p.BluRay.x264-CARTEL

Jahr: 2018
Genre: Action, Sci-Fi
Sprache: Deutsch AC3 | Englisch DTS
Laufzeit: 1h 59mn
Bitrate: 6 911 Kbps
Format: MKV
Größe: 5.79 GiB
Release:

Beschreibung:
Außerirdische Angreifer haben ihren eigenen Planeten niedergewirtschaftet und die Erde zu ihrer neuen Heimat auserkoren – es müssen nur noch die Menschen weg! Das irdische Militär ist den Eindringlingen in ihren futuristischen Rüstungen nicht gewachsen und schon bald ist sämtliche Kommunikation auf unserem Planeten zusammengebrochen. Doch eine Handvoll zusammengewürfelte Zivilisten kämpft ums Überleben: Es sind also ausgerechnet die Bewohner einer australischen Kleinstadt, die sich der gefährlichen Alieninvasion stellen! Die Gruppe hat keine Lust auf Weltuntergang und sucht stattdessen lieber nach einem Weg, den Kampf um die Erde noch zu Gunsten der Menschheit zu drehen…


Complete name                            : occupation720.mkv
Format                                   : Matroska
Format version                           : Version 4 / Version 2
File size                                : 5.79 GiB
Duration                                 : 1h 59mn
Overall bit rate                         : 6 911 Kbps
Movie name                               : CARTEL
Encoded date                             : UTC 2018-12-07 09:48:39
Writing application                      : mkvmerge v22.0.0 ('At The End Of The World') 64-bit
Writing library                          : libebml v1.3.5 + libmatroska v1.4.8
DURATION                                 : 01:59:33.984000000
NUMBER_OF_FRAMES                         : 224187
NUMBER_OF_BYTES                          : 344351232
_STATISTICS_WRITING_APP                  : mkvmerge v22.0.0 ('At The End Of The World') 64-bit
_STATISTICS_WRITING_DATE_UTC             : 2018-12-07 09:48:39
_STATISTICS_TAGS                         : BPS DURATION NUMBER_OF_FRAMES NUMBER_OF_BYTES

Video
ID                                       : 1
Format                                   : AVC
Format/Info                              : Advanced Video Codec
Format profile                           : High@L4.1
Format settings, CABAC                   : Yes
Format settings, ReFrames                : 5 frames
Codec ID                                 : V_MPEG4/ISO/AVC
Duration                                 : 1h 59mn
Bit rate                                 : 5 011 Kbps
Width                                    : 1 280 pixels
Height                                   : 536 pixels
Display aspect ratio                     : 2.40:1
Frame rate mode                          : Constant
Frame rate                               : 23.976 fps
Color space                              : YUV
Chroma subsampling                       : 4:2:0
Bit depth                                : 8 bits
Scan type                                : Progressive
Bits/(Pixel*Frame)                       : 0.305
Stream size                              : 4.09 GiB (71%)
Writing library                          : x264 core 157 r2932 303c484
Encoding settings                        : cabac=1 / ref=5 / deblock=1:-3:-3 / analyse=0x3:0x133 / me=umh / subme=8 / psy=1 / psy_rd=1.00:0.00 / mixed_ref=1 / me_range=16 / chroma_me=1 / trellis=1 / 8x8dct=1 / cqm=0 / deadzone=21,11 / fast_pskip=0 / chroma_qp_offset=-2 / threads=17 / lookahead_threads=2 / sliced_threads=0 / nr=0 / decimate=1 / interlaced=0 / bluray_compat=0 / constrained_intra=0 / bframes=3 / b_pyramid=2 / b_adapt=1 / b_bias=0 / direct=3 / weightb=1 / open_gop=0 / weightp=2 / keyint=250 / keyint_min=23 / scenecut=40 / intra_refresh=0 / rc_lookahead=50 / rc=2pass / mbtree=1 / bitrate=5011 / ratetol=1.0 / qcomp=0.60 / qpmin=0 / qpmax=69 / qpstep=4 / cplxblur=20.0 / qblur=0.5 / vbv_maxrate=62500 / vbv_bufsize=78125 / nal_hrd=none / filler=0 / ip_ratio=1.40 / aq=1:1.00
Default                                  : Yes
Forced                                   : No

Audio #1
ID                                       : 2
Format                                   : AC-3
Format/Info                              : Audio Coding 3
Mode extension                           : CM (complete main)
Format settings, Endianness              : Big
Codec ID                                 : A_AC3
Duration                                 : 1h 59mn
Bit rate mode                            : Constant
Bit rate                                 : 384 Kbps
Channel(s)                               : 6 channels
Channel positions                        : Front: L C R, Side: L R, LFE
Sampling rate                            : 48.0 KHz
Bit depth                                : 16 bits
Compression mode                         : Lossy
Delay relative to video                  : 23s 266ms
Stream size                              : 330 MiB (6%)
Language                                 : German
Default                                  : Yes
Forced                                   : Yes

Audio #2
ID                                       : 3
Format                                   : DTS
Format/Info                              : Digital Theater Systems
Mode                                     : 16
Format settings, Endianness              : Big
Codec ID                                 : A_DTS
Duration                                 : 1h 59mn
Bit rate mode                            : Constant
Bit rate                                 : 1 509 Kbps
Channel(s)                               : 6 channels
Channel positions                        : Front: L C R, Side: L R, LFE
Sampling rate                            : 48.0 KHz
Bit depth                                : 24 bits
Compression mode                         : Lossy
Stream size                              : 1.26 GiB (22%)
Language                                 : English
Default                                  : No
Forced                                   : No

Text #1
ID                                       : 4
Format                                   : UTF-8
Codec ID                                 : S_TEXT/UTF8
Codec ID/Info                            : UTF-8 Plain Text
Language                                 : German
Default                                  : Yes
Forced                                   : Yes

Text #2
ID                                       : 5
Format                                   : VobSub
Muxing mode                              : zlib
Codec ID                                 : S_VOBSUB
Codec ID/Info                            : The same subtitle format used on DVDs
Language                                 : English
Default                                  : No
Forced                                   : No


Download:
Share Online Share OnlineShare OnlineShare Online
 

Kommentare